#TITLE:Fascination MaxX (Challenge);
#SUBTITLE:Editing by Pikminiman;
#ARTIST:100-200-400;
#TITLETRANSLIT:;
#SUBTITLETRANSLIT:;
#ARTISTTRANSLIT:;
#CREDIT:;
#BANNER:Fascination MaxX.png;
#BACKGROUND:Fascination MaxX-bg.png;
#LYRICSPATH:;
#CDTITLE:pikminiman.png;
#MUSIC:Fascination MaxX.mp3;
#OFFSET:-0.079;
#SAMPLESTART:19.790;
#SAMPLELENGTH:15.000;
#SELECTABLE:YES;
#DISPLAYBPM:*;
#BPMS:0.000=100.000,16.000=400.000,20.000=200.000,22.000=400.000,75.000=900.000,210.500=200.000,306.500=50.000,310.146=400.000,374.125=1200.000,504.625=400.000,509.146=100.001,513.146=200.002,521.146=400.000,536.333=400.800,536.500=1200.001;
#STOPS:16.000=0.141
,16.063=0.141
,16.125=0.141
,16.188=0.141
,16.250=0.141
,16.313=0.141
,16.375=0.141
,16.438=0.141
,16.500=0.141
,16.563=0.141
,16.625=0.141
,16.688=0.141
,16.750=0.141
,16.813=0.141
,16.875=0.141
,16.938=0.141
,17.000=0.141
,17.063=0.141
,17.125=0.141
,17.188=0.141
,17.250=0.141
,17.313=0.141
,17.375=0.141
,17.438=0.141
,17.500=0.141
,17.563=0.141
,17.625=0.141
,17.688=0.141
,17.750=0.141
,17.813=0.141
,17.875=0.141
,17.938=0.141
,18.000=0.141
,18.063=0.141
,18.125=0.141
,18.188=0.141
,18.250=0.141
,18.313=0.141
,18.375=0.141
,18.438=0.141
,18.500=0.141
,18.563=0.141
,18.625=0.141
,18.688=0.141
,18.750=0.141
,18.813=0.141
,18.875=0.141
,18.938=0.141
,19.000=0.141
,19.063=0.141
,19.125=0.141
,19.188=0.141
,19.250=0.141
,19.313=0.141
,19.375=0.141
,19.438=0.141
,19.500=0.141
,19.563=0.141
,19.625=0.141
,19.688=0.141
,19.750=0.141
,19.813=0.141
,19.875=0.141
,19.938=0.141
,38.000=0.300
,49.000=0.450
,66.000=0.300
,210.000=0.071
,210.063=0.054
,210.125=0.088
,210.188=0.071
,210.250=0.071
,210.313=0.071
,210.375=0.071
,210.438=0.071
,306.500=2.300
,308.417=0.525
,523.188=0.141
,525.250=0.141
,527.313=0.141
,534.375=0.516
;
#BGCHANGES:;
// cache tags:
#FIRSTBEAT:0.000;
#LASTBEAT:539.875;
#SONGFILENAME:Songs/Music V.I.P ^_^/FAXX/Fascination MaxX.sm;
#HASMUSIC:1;
#HASBANNER:1;
#MUSICLENGTH:101.963;
// end cache tags

//---------------dance-single - ----------------
#NOTES:
     dance-single:
     :
     Challenge:
     1:
     1.000,1.000,1.000,1.000,1.000,2248.000,162.000,271.000,377.000,110.000:
1000
0100
0010
0001
1000
0100
0010
0001
1000
0100
0010
0001
1000
0100
0010
0001
1000
0100
0010
0001
1000
0100
0010
0001
1000
0100
0010
0001
1000
0100
0010
0001
1000
0100
0010
0001
0100
0010
1000
0001
0100
0010
1000
0001
0100
1000
0100
0010
,
0001
0000
0000
0000
0010
0000
0000
0000
0100
0000
0000
0000
0000
0000
0000
0000
1000
0000
0000
0000
0100
0000
0000
0000
0010
0000
0000
0000
0001
0000
0000
0000
0010
0000
0000
0000
0100
0000
0000
0000
1000
0000
0000
0000
0001
0000
0000
0000
0100
0000
0000
0000
0010
0000
0000
0000
1000
0000
0000
0000
0001
0000
0000
0000
0100
0000
0000
0000
0010
0000
0000
0000
0001
0000
0000
0000
1000
0000
0000
0000
0100
0000
0000
0000
0010
0000
0000
0000
1000
0000
0000
0000
0100
0000
0000
0000
0010
0000
0000
0000
0001
0000
0000
0000
1000
0000
0000
0000
0100
0000
0000
0000
0010
0000
0000
0000
1000
0000
0000
0000
0001
0000
0000
0000
0100
0000
0000
0000
0010
0000
0000
0000
0100
0000
0000
0000
1000
0000
0000
0000
0001
0000
0000
0000
0100
0000
0000
0000
0010
0000
1000
0000
0000
0100
0000
0000
0001
0000
0000
0010
0000
0000
0100
0000
0000
0001
0000
0000
1000
0000
0000
0100
0000
0000
0010
0000
0000
0002
0000
0000
1000
0000
0000
0100
0000
0000
0010
0000
0000
1003
0000
0000
,
0001
0100
0010
1000
0001
1000
0100
0010
1000
0100
0010
0001
1000
0100
1000
0010
0001
0100
1000
0010
0001
1000
0100
0010
0001
1000
0100
0010
0001
0010
0100
1000
0001
0100
0010
0001
1000
0100
0010
1000
0001
0100
0010
0001
1000
0100
1000
0100
0010
0001
1000
0100
0010
0001
1000
0100
0010
1000
0001
0100
0010
0002
1003
0100
,
0010
1000
0001
0100
0001
1000
0100
0010
0001
1000
0100
0010
1000
0001
0100
0010
1000
0001
1000
0100
0010
0001
1000
0100
0010
0001
1000
0001
1000
0001
1000
0001
1000
0001
1000
0100
0020
0030
0100
0010
0001
1000
0100
1000
0001
0100
0010
1000
0001
0100
0010
1000
0001
0100
0010
1000
0001
0100
0010
1000
0001
1000
0100
0010
,
MMM1
1MMM
0100
0010
1000
0100
0010
0001
1MMM
M1MM
MM1M
MMM1
1MMM
M1MM
MM1M
MMM1
1MMM
M1MM
MM1M
MMM1
1MMM
M1MM
MM1M
MMM1
1MMM
M1MM
MM1M
MMM1
1MMM
M1MM
MM1M
MMM0
1MM0
M1MM
MM1M
MMM1
1MMM
M1MM
MM1M
MMM1
1MMM
M100
MM1M
MMM1
1MMM
M1MM
MM1M
MMM1
1MMM
0000
M01M
MMM1
1MMM
M1MM
0M1M
MMM1
1MMM
M1MM
MM1M
MMM1
1MMM
M1MM
MM1M
MMM1
,
1MMM
1000
0100
0000
0100
0010
0000
0010
0001
0000
0001
1000
1001
0000
1000
0000
0100
0000
0000
0000
0100
0000
0010
0000
,
0000
0010
0001
0000
0001
0100
0000
0100
0010
0000
0010
1000
,
0000
1000
0100
0000
0100
0010
0000
0010
0001
0000
0001
0100
,
0000
0000
0100
0000
0010
0000
0000
0000
0010
0000
1000
0000
0000
0000
1000
0000
0001
1000
0100
0020
0031
0010
0100
1000
,
0001
0000
0000
0000
0000
0000
0000
0000
0100
0000
0000
0000
0000
0000
0000
0000
0010
0000
0000
0000
0000
0000
0000
0000
0001
0000
0000
0000
0000
0000
0000
0000
1000
0000
0000
0000
0000
0000
0000
0000
0100
0000
0000
0000
0000
0000
0000
0000
0010
0000
0000
0000
0000
0000
0000
0000
1000
0000
0000
0000
0000
0000
0000
0000
0001
0000
0000
0000
0000
0000
0000
0000
0100
0000
0000
0000
0000
0000
0000
0000
0010
0000
0000
0000
0000
0000
0000
0000
1000
0000
0000
0000
0000
0000
0000
0000
0001
0000
0000
0000
0000
0000
1000
0000
0000
0000
0000
0000
0100
0000
0000
0000
0000
0000
0010
0000
0000
0000
0000
0000
0001
0000
0000
0000
0000
0000
0010
0000
0000
0000
0000
0000
0100
0000
0000
0000
0000
0000
1000
0000
0000
0000
0000
0000
0001
0000
0000
0000
0000
0000
0100
0000
0000
0000
0000
0000
0020
0000
0000
0000
0000
0000
1030
0000
0000
0000
0000
0000
0001
0000
0000
0000
0000
0000
0100
0000
0000
0000
0000
0000
0010
0000
0000
0000
0000
0000
1000
0000
0000
0000
0000
0000
,
0001
0100
0010
1000
0001
0100
0010
1000
0001
0100
0010
1000
0001
0100
0010
1000
0001
0100
1000
0100
0010
0001
1000
0100
0010
0001
0010
1000
0002
1003
0100
0010
,
0001
1000
0100
0010
0001
1000
0100
0010
0001
1000
0100
0010
0001
1000
0100
1000
0010
0100
0010
0001
0010
0001
1000
0100
0010
0001
1000
0100
0010
0001
1000
0100
,
0010
0000
0000
0000
0000
0000
0001
0000
0000
0000
0000
0000
1000
0000
0000
0000
0000
0000
0100
0000
0000
0000
0000
0000
0010
0000
0000
0000
0000
0000
0001
0000
0000
0000
0000
0000
1000
0000
0000
0000
0000
0000
0100
0000
0000
0000
0000
0000
0001
0000
0000
0000
0100
0000
0000
0000
0010
0000
0000
0000
0001
0000
0000
0000
1000
0000
0000
0000
0100
0000
0000
0000
0010
0000
0000
0000
0001
0000
0000
0000
0010
0000
0000
0000
0100
0000
0000
0000
1000
0000
0000
0000
0001
0000
0000
0000
0010
0000
0000
0000
0100
0000
0000
0000
0010
0000
0000
0000
0001
0000
0000
0000
1000
0000
0000
0000
0100
0000
0000
0000
0010
0000
0000
0000
0001
0000
0000
0000
2000
0000
0000
0000
3100
0000
0000
0000
0010
0000
0000
0000
0001
0000
0000
0000
0010
0000
0000
0000
0100
0000
0000
0000
1000
0000
0000
0000
0001
0000
0000
0000
1000
0000
0000
0000
0100
0000
0000
0000
0010
0000
0000
0000
0001
0000
0000
0000
1000
0000
0000
0000
0100
0000
0000
0000
0010
0000
0000
0000
0001
0000
0000
0000
,
1000
0100
0010
1000
0001
0100
0020
0031
0100
0001
0100
0010
1000
0100
0010
0001
1000
0100
1000
0001
0010
0001
0100
0010
0100
1000
0001
1000
0100
0010
0001
1000
0001
0100
1000
0001
0010
0100
1000
0001
1000
0100
0010
0001
1000
0001
0100
0010
,
1000
0100
0010
0001
0010
0100
0001
1000
0100
0010
1000
0100
0010
0001
1000
0100
1000
0010
0100
0001
0100
0010
1000
0001
0100
1000
0010
0001
0100
1000
0001
0100
1000
0001
0100
0010
1000
0001
1000
0100
0010
0001
1000
0100
0010
0001
1000
0100
,
0010
0001
0100
0010
0001
1000
0001
0100
1000
0001
0100
0010
1000
0001
0100
0010
0001
2000
3100
0010
1000
0001
1000
0100
0010
0001
1000
0100
0010
0001
1000
0100
0010
0001
1000
0100
0020
0032
1003
0100
0010
0002
0013
0100
1000
0001
0010
0100
,
1000
0000
0000
0000
0001
0000
0000
0000
0010
0000
0000
0000
0100
0000
0000
0000
1000
0000
0000
0000
0001
0000
0000
0000
0010
0000
0000
0000
0100
0000
0000
0000
1000
0000
0000
0000
0001
0000
0000
0000
0020
0000
0000
0000
0130
0000
0000
0000
1000
0000
0000
0000
0100
0000
0000
0000
0010
0000
0000
0000
1000
0000
0000
0000
0001
0000
0000
0000
1000
0000
0000
0000
0100
0000
0000
0000
0010
0000
0000
0000
1000
0000
0000
0000
0001
0000
0000
0000
1000
0000
0000
0000
0001
0000
0000
0000
1000
0000
0000
0100
0000
0000
0010
0000
0000
0001
0000
0000
1000
0000
0000
0100
0000
0000
0010
0000
0000
0001
0000
0000
0010
0000
0000
0100
0000
0000
0001
0000
0000
1000
0000
0000
0200
0000
0000
0310
0000
0000
1000
0000
0000
0100
0000
0000
1000
0000
0000
1000
0000
0000
0100
0000
0000
0010
0000
0000
0100
0000
0000
0001
0000
0000
1000
0000
0000
0100
0000
0000
0010
0000
0000
0001
0000
0000
1000
0000
0000
0100
0000
0000
0010
0000
0000
1000
0000
0000
0001
0000
0000
0100
0000
0000
,
0010
1000
0001
0100
1000
0100
0010
0001
0010
0100
1000
0001
0100
0010
0002
1003
0100
0010
1000
0001
0100
0010
0001
1000
0200
0310
1000
0001
0100
0020
0030
0002
1003
0100
0010
1000
0001
0100
0010
1000
0001
0100
0010
0001
1000
0100
0010
0001
1000
0100
0010
1000
0100
0010
0001
1000
0100
0010
0001
1000
0100
0010
1000
0001
,
0100
1000
0001
0100
0010
0001
1000
0100
0001
1000
0010
0100
0001
1000
0100
0010
1000
0001
0100
0010
0000
0100
0001
1000
0100
0010
0001
1000
0100
0010
0001
1000
0100
1000
0001
0010
0100
0010
0001
1000
0100
0010
0001
1000
0100
0001
0010
0100
1000
0000
0000
0000
0000
0000
0000
0000
0000
0000
0000
0000
0000
0000
0000
0000
,
0100
0010
0001
1000
,
0100
0010
0001
1000
,
0100
0010
0001
1000
,
0100
0000
0010
0000
0001
0000
0100
1000
,
0001
0010
0100
0001
1000
0100
0001
0010
,
1000
0010
0001
0100
,
1000
0001
0010
0100
,
0002
1003
0100
0010
,
1000
0001
0100
0010
,
0001
1000
0100
0010
,
1000
0001
0100
0010
,
2000
3100
0020
0032
,
2003
3200
0322
0033
,
1000
0001
0100
0010
,
0200
0302
2003
3000
,
1100
0011
0110
1100
,
0011
1010
0101
0011
,
1100
1010
0101
0011
,
1100
1010
0101
0001
,
1000
0100
0010
0001
,
1000
0100
0010
0001
,
0010
0100
1000
0001
,
0010
0000
0100
0000
1000
0000
0001
0100
,
0010
0000
0000
0000
0000
0000
0000
0000
0000
0000
0000
0000
0000
0000
0000
0000
0000
0000
0000
0000
0000
0000
0000
0000
0001
0000
0000
0000
0000
0000
0000
0000
0000
0000
0000
0000
0000
0000
0000
0000
0000
0000
0000
0000
0000
0000
0000
0000
1000
0000
0000
0000
0000
0000
0000
0000
0000
0000
0000
0000
0000
0000
0000
0000
0100
0000
0000
0000
0000
0000
0000
0000
0000
0000
0000
0000
0000
0000
0000
0000
0010
0000
0000
0000
0000
0000
0000
0000
0000
0000
0000
0000
0000
0000
0000
0000
0001
0000
0000
0000
0000
0000
0000
0000
0000
0000
0000
0000
0000
0000
0000
0000
1000
0000
0000
0000
0000
0000
0000
0000
0100
0000
0000
0000
0000
0000
0000
0000
0000
0000
0000
0000
0010
0000
0000
0000
0000
0000
0000
0000
0000
0000
0000
0000
0001
0000
0000
0000
0000
0000
0000
0000
0000
0000
0000
0000
1000
0000
0000
0000
0100
0000
0000
0000
0000
0000
0000
0000
0020
0000
0000
0000
0000
0000
1000
0000
0031
0000
0000
0000
0100
0000
0000
0000
0000
0000
0010
0000
0000
0000
0000
0000
,
0001
0000
0000
0000
1000
0000
0000
0000
0100
0000
0000
0000
0001
0000
0000
1000
0001
0000
0100
0000
0100
0010
0000
0000
0001
0000
0000
1000
0000
0000
0000
0000
0000
0000
0000
0000
0000
0000
0000
0000
0000
0000
0000
0000
0000
0000
0000
0000
1000
0000
0000
0000
0000
0000
0000
0000
0000
0000
0000
0000
0000
0000
0000
0000
0000
0000
0000
0000
0000
0000
0000
0000
0000
0000
0000
0000
0000
0000
0000
0000
0000
0000
0000
0000
0000
0000
0000
0000
0000
0000
0000
0000
0000
0000
0000
0000
0100
0000
0000
0000
0000
0000
0000
0000
0000
0000
0000
0000
0000
0000
0000
0000
0000
0000
0000
0000
0000
0000
0000
0000
0000
0000
0000
0000
0000
0000
0000
0000
0000
0000
0000
0000
0000
0000
0000
0000
0000
0000
0000
0000
0000
0000
0000
0000
0010
0000
0000
0000
0000
0000
0000
0000
0000
0000
0000
0000
0000
0000
0000
0000
0000
0000
0000
0000
0000
0000
0000
0000
0000
0000
0000
0000
0000
0000
0000
0000
0000
0000
0000
0000
0000
0000
0000
0000
0000
0000
0000
0000
0000
0000
0000
0000
,
0001
1000
0100
0010
,
0001
0010
0100
1000
,
0001
0010
0100
1000
,
0001
0100
0010
1000
,
0001
0100
0010
0001
1000
0100
0010
0001
,
1000
0100
0010
0100
0001
1000
0100
0010
,
1000
0010
0100
0001
1000
0010
0100
0002
1003
0100
0010
0001
,
1000
0000
0100
0010
0001
1000
0001
0100
0010
1000
0001
0100
0010
1000
0001
0100
,
1000
0000
0000
0000
0000
0000
0000
0000
0100
0000
0000
0000
0000
0000
0000
0000
0010
0000
0000
0000
0000
0000
0000
0000
0001
0000
0000
0000
0000
0000
0000
0000
1000
0000
0000
0000
0000
0000
0000
0000
0100
0000
0000
0000
0000
0000
0000
0000
0010
0000
0000
0000
0000
0000
0000
0000
0001
0000
0000
0000
0000
0000
0000
0000
1000
0000
0100
0000
0000
0000
0000
0000
0010
0000
0000
0000
0000
0000
0001
0000
1000
0000
0000
0000
0100
0000
0000
0000
0001
0000
0010
0000
0000
0100
0000
0000
1001
0000
0000
1100
0000
0000
0110
0000
0000
0011
0000
0000
1001
0000
0000
1100
0000
0000
1010
0000
0000
0101
0000
0000
1001
0000
0000
0000
0000
0000
0000
0000
0000
0000
0000
0000
1000
0000
0000
0000
0000
0000
0000
0000
0000
0000
0000
0000
0100
0000
0000
0000
0000
0000
0000
0000
0000
0000
0000
0000
0010
0000
0000
0000
0000
0000
0000
0000
0000
0000
0000
0000
0001
0000
0000
0000
0000
0000
0000
0000
0000
0000
0000
0000
1000
0000
0000
0000
0000
0000
0000
0000
0000
0000
0000
0000
,
0100
0010
0001
0010
0100
1000
0001
0010
0100
1000
0001
0100
0010
1000
0001
0100
,
0010
0000
0000
1000
0000
0000
0001
0000
0000
0100
0000
0000
0010
0000
0000
1000
0000
0000
1000
0000
0000
0100
0000
0000
0010
0000
0000
0001
0000
0000
1000
0000
0000
0100
0000
0000
0010
0000
0000
0001
0000
0000
1000
0000
0000
0100
0010
0000
,
0001
0000
0000
0000
0000
0000
0000
0000
1000
0000
0000
0000
0000
0000
0000
0000
0001
0000
0000
0000
0000
0000
0000
0000
0100
0000
0000
0000
0000
0000
0000
0000
0010
0000
0000
0000
0000
0000
0000
0000
1000
0000
0000
0000
0000
0000
0000
0000
0001
0000
0000
0000
0000
0000
0000
0000
0100
0000
0000
0000
0000
0000
0000
0000
1000
0000
0000
0000
0000
0000
0000
0000
0001
0000
0000
0000
0000
0000
0000
0000
0010
0000
0000
0000
0000
0000
0000
0000
0100
0000
0000
0000
0000
0000
0000
0000
1000
0000
0000
0000
0000
0000
0000
0000
0010
0000
0000
0000
0000
0000
0000
0000
0100
0000
0000
0000
0000
0000
0000
0000
1000
0000
0000
0000
0000
0000
0100
0000
0000
0000
0000
0000
0001
0000
0000
0000
0000
0000
0010
0000
0000
0000
0000
0000
1000
0000
0000
0000
0000
0000
0001
0000
0000
0000
0000
0000
0100
0000
0000
0000
0000
0000
0010
0000
0000
0000
0000
0000
0002
0000
0000
0000
0000
0000
1003
0000
0000
0000
0000
0000
0002
0000
0000
0000
0000
0000
0103
0000
0010
0000
0000
0000
,
1000
0000
0000
0000
0001
0000
0000
0000
1000
0000
0000
0000
0100
0000
0000
0000
0010
0000
1000
0000
0000
0100
0000
0000
0010
0000
0000
0001
0000
0000
1000
0000
0000
0001
0000
0000
1000
0000
0000
0000
0100
0000
0000
0000
0000
0000
0000
0000
0002
0000
0000
0000
0000
0000
0000
0000
1003
0000
0000
0000
0000
0000
0000
0000
0010
0000
0000
0000
0000
0000
0000
0000
0100
0000
0000
0000
0000
0000
0000
0000
0001
0000
0000
0000
0000
0000
0000
0000
1000
0000
0000
0000
0000
0000
0000
0000
0001
0000
0000
0000
0000
0000
0000
0000
0100
0000
0000
0000
0000
0000
0000
0000
0010
0000
0000
0000
0000
0000
0000
0000
1000
0000
0000
0000
0000
0000
0000
0000
0000
0000
0000
0000
0100
0000
0000
0000
0000
0000
0000
0000
0000
0000
0000
0000
0010
0000
0000
0000
0000
0000
0000
0000
0000
0000
0000
0000
0001
0000
0000
0000
0000
0000
0000
0000
0000
0000
0000
0000
1000
0000
0000
0000
0000
0000
0000
0000
0000
0000
0000
0000
0100
0000
0000
0000
0000
0000
0000
0000
0000
0000
0000
0000
,
0020
0031
1000
0001
0100
0010
0100
0001
1000
0001
1000
0010
0100
0002
1003
0001
,
1000
0010
0001
1000
0001
0010
1000
0100
0001
0020
1030
0001
0100
0001
1000
0001
,
0100
1000
0010
0001
1000
0100
1000
0001
0010
0100
1000
0001
1000
0100
0010
0001
,
1000
0100
0010
0001
1000
0100
0010
0001
0010
0100
1000
0001
0010
0100
1000
0001
,
0010
0100
1000
0100
0010
1000
0001
1000
0100
0001
1000
0100
0001
1000
0100
0020
,
0032
1003
0100
0010
0001
1000
0100
0010
0001
1000
0001
0010
0100
1000
0001
0010
,
0100
1000
0001
0010
0100
1000
0001
0010
0100
1000
0001
0010
0100
1000
0100
0010
,
0001
0100
0010
1000
0100
0100
1000
0001
1000
0100
0010
1000
0001
1000
0001
0010
,
1000
0001
0010
0001
1000
0100
0010
1000
0001
0010
0100
0001
0010
0100
1000
0001
,
0100
0010
0001
1000
0100
0010
1000
0001
0100
0010
1000
0001
0100
0001
0010
0001
,
0100
0001
0010
0100
1000
0100
0010
0001
1000
0001
0100
0010
1000
0001
0100
0010
,
1000
0001
0100
1000
0010
1000
0100
0010
0000
0001
0010
0100
0001
0001
0001
0001
,
0001
0001
0001
0001
0001
0001
0001
0001
0001
0001
0001
0001
0001
0010
0010
0010
,
0010
0010
0010
0010
0010
0010
0010
0010
0010
0010
0010
0010
0010
0010
0010
0100
,
0100
0100
0100
0100
0100
0100
0100
0100
0100
0100
0100
0100
0100
0100
0100
0100
,
0100
0100
0100
0100
0100
0100
0100
1000
1000
1000
1000
1000
1000
1000
1000
1000
,
1000
1000
1000
1000
1000
1000
1000
1000
1000
1000
1000
1000
1000
1000
1100
0110
,
0011
0110
1100
1001
1100
0011
0110
1100
0011
1010
0101
1010
0101
1100
0011
1010
,
0101
1100
0011
1010
0101
1100
0011
1010
0101
1010
0101
1100
0011
1100
0011
1100
,
0011
0000
0000
0000
0000
0000
0000
0000
0000
0000
0000
0000
1010
0000
0000
0000
0000
0000
0000
0000
0000
0000
0000
0000
0101
0000
0000
0000
0000
0000
0000
0000
0000
0000
0000
0000
1010
0000
0000
0000
0000
0000
0000
0000
0000
0000
0000
0000
0101
0000
0000
0000
0000
0000
0000
0000
0000
0000
0000
0000
1010
0000
0000
0000
0000
0000
0000
0000
0000
0000
0000
0000
0101
0000
0000
0000
0000
0000
0000
0000
0000
0000
0000
0000
1100
0000
0000
0011
0000
0000
1100
0000
0000
0011
0000
0000
1100
0000
0000
0011
0000
0000
1100
0000
0000
0011
0000
0000
1100
0000
0000
0011
0000
0000
1100
0000
0000
0011
0000
0000
1100
0000
0000
0000
0001
0000
0000
0000
0010
0000
0000
0000
0100
0000
0000
0000
1000
0000
0000
0000
0001
0000
0000
0000
0100
0000
0000
0000
1000
0000
0000
0000
0001
0000
0000
0000
0010
0000
0000
0000
0100
0000
0000
0000
1000
0000
0000
0000
0001
0000
0000
0000
0100
0000
0000
0000
1000
0000
0000
0000
0100
0000
0000
0000
0010
0000
0000
0000
0001
0000
0000
0000
,
1000
0100
0010
0001
1000
0110
1MMM
M1MM
MM1M
MMM1
M1MM
MM1M
1MMM
MM1M
1MMM
M1MM
M1MM
1000
0100
0010
0001
1000
0100
1000
0001
0110
0000
0000
1000
0000
0100
0000
1000
0000
0100
0000
1000
0000
0100
0000
1000
0000
0100
0000
1000
0000
0100
0000
,
1000
0100
1000
0100
2000
3100
1000
0100
1000
0200
1300
0100
0010
0100
0010
0100
0010
0100
0010
0100
0010
0100
0010
0100
,
0010
0100
0010
0100
0010
0100
0010
0100
0010
0100
0010
0001
0010
0001
0010
0001
0010
0001
0010
0001
0010
0001
0010
0001
,
0010
0000
0001
0000
0010
0000
0001
0000
0010
0000
0001
0000
0010
0000
0000
0100
0000
0000
0010
0000
0000
0100
0000
0000
0010
0000
0000
0100
0000
0000
0020
0000
0000
0130
0000
0000
0010
0000
0000
0200
0000
0000
0310
0000
0000
1000
0000
0000
,
0010
1000
0010
1000
0010
1000
0010
1000
0010
1000
0010
1000
0010
1000
0010
1000
,
0010
0001
0100
0001
0100
0001
0100
0001
0100
0001
0100
0001
0100
0001
0100
0001
,
0100
0001
0100
0001
0100
0001
0100
0001
0100
0001
0100
0001
0100
0001
0100
0001
,
0100
1000
0001
1000
0001
1000
0001
1000
0001
1000
0001
1000
0001
1000
0001
1000
,
0001
0000
0000
0100
0010
0000
0001
0000
1000
0000
0100
0000
0010
0000
0001
0000
1000
0000
0100
0000
1000
0000
0010
0000
0001
0000
0100
0000
0001
0000
0010
0000
0001
0000
1000
0000
0100
0000
0100
0000
0010
0000
0001
0000
1000
0000
0100
0000
,
0001
0000
1000
0000
0010
0000
0100
0000
0001
1000
0000
0000
0100
0000
0000
0010
0000
0000
0001
0000
0000
1000
0000
0000
0100
0000
0000
0010
0000
0000
0001
0000
0000
1000
0000
0000
0100
0000
0000
0010
0000
0000
0001
0000
0000
1000
0000
0000
,
0100
0010
0001
1000
0100
0010
0001
1000
0100
0010
0001
1000
0100
0010
0001
0010
,
0100
1000
0001
0010
0100
1000
0001
0010
0100
1000
0001
0010
0100
1000
0001
0010
,
0100
1000
0001
0010
0100
0002
1003
0100
0010
0001
1000
0100
0010
0001
0100
1000
,
0001
0010
0100
0001
1000
0001
1000
0100
0010
1000
0001
1000
0100
0010
1000
0001
,
1000
0000
0000
0000
0000
0000
0000
0000
0100
0000
0000
0000
0000
0000
0000
0000
0010
0000
0000
0000
0000
0000
0000
0000
0001
0000
0000
0000
0000
0000
0000
0000
1000
0000
0000
0000
0000
0000
0000
0000
0100
0000
0000
0000
0000
0000
0000
0000
0010
0000
0000
0000
0000
0000
0000
0000
0001
0000
0000
0000
0000
0000
0000
0000
0010
0000
0000
0000
0000
0000
0000
0000
0100
0000
0000
0000
0000
0000
0000
0000
1000
0000
0000
0000
0000
0000
0000
0000
0001
0000
0000
0000
0000
0000
0000
0000
0010
0000
0000
0000
0000
0000
0000
0000
0100
0000
0000
0000
0000
0000
0000
0000
1000
0000
0000
0000
0000
0000
0000
0000
0002
0000
0000
0000
0000
0000
0000
0000
1003
0000
0000
0000
0000
0000
0000
0000
0100
0000
0000
0000
0000
0000
0000
0000
0010
0000
0000
0000
0000
0000
0001
0000
0000
0000
0000
0000
0100
0000
0000
0000
0000
0000
0010
0000
0000
0000
0000
0000
0001
0000
0000
0000
0000
0000
1000
0000
0000
0000
0000
0000
0100
0000
0000
0000
0000
0000
0010
0000
0000
0000
0000
0000
,
1000
0010
0100
0002
1003
0100
0010
0001
1000
0001
0100
0010
0001
1000
0100
0010
1000
0001
0100
1000
0001
0100
0001
1000
0100
0010
0001
1000
0010
0100
0010
0001
,
1000
0000
0000
0000
0000
0000
0100
0000
0010
0000
0000
0000
0001
0000
0000
0000
1000
0000
0000
0000
0100
0000
0000
0000
1000
0000
0000
0000
0010
0000
0000
0000
0001
0000
0000
0000
0100
0000
0000
0000
0010
0000
0000
0000
0001
0000
0000
0000
1000
0000
0000
0000
0100
0000
0000
0000
0010
0000
0000
0000
0001
0000
0000
0000
1000
0000
0000
0000
0100
0000
0000
0000
0010
0000
0000
0000
0001
0000
0000
0000
1000
0100
0000
0000
0010
0000
0000
0001
0000
0000
1000
0000
0000
0100
0000
0000
0001
0000
0000
0010
0000
0000
0100
0000
0000
0000
0000
0000
0000
0000
0000
0000
0000
0000
0000
0000
0000
0000
0000
0000
0000
0000
0000
0000
0000
0000
0000
0000
0000
0000
0000
0000
0000
0000
0000
0000
0000
0000
0000
0000
0000
0000
0000
0000
1000
0000
0000
0000
0000
0000
0000
0000
0000
0000
0000
0000
0000
0000
0000
0000
0000
0000
0000
0000
0000
0000
0000
0000
0000
0000
0000
0000
0000
0000
0000
0000
0000
0000
0000
0000
0000
0000
0000
0000
0000
0000
0000
0000
0000
0000
0000
0000
,
0100
0010
0001
1000
,
0100
0000
0010
0000
0001
0010
0100
0002
,
1003
0100
0010
0001
1000
0100
0010
1000
,
0001
0100
0010
0000
1000
0000
0100
0000
,
0010
0001
1000
0100
,
0010
0001
1000
0100
,
1000
0100
0010
0001
,
0010
0001
0100
0001
,
0100
0010
1000
0010
,
1000
1000
0001
1000
,
0001
1000
0100
0010
,
0001
0000
0010
0000
0100
0000
1000
0100
,
0010
0001
0010
0100
1000
0001
1000
0100
,
0010
1000
0001
0100
0010
0001
0100
0010
,
0200
0320
1030
0000
1000
0000
0100
0000
,
0010
0001
0010
0100
,
1000
0001
0100
0010
,
1000
0001
0100
1000
,
0010
0010
0100
0001
,
1000
1000
0100
0010
,
0001
0010
0100
1000
,
0001
0100
0010
0002
,
1003
0100
0010
0001
,
0010
0100
1000
0001
,
0100
0010
1000
0001
,
0100
0010
1000
0001
,
0100
0010
1000
0001
,
0010
0100
1000
0001
,
0100
0010
1000
0001
,
0100
0010
0001
1000
,
0100
0000
0010
1000
0100
0010
0001
0010
,
0100
0000
0000
0000
0000
0000
1000
0000
0000
0000
0000
0000
0001
0000
0000
0000
0000
0000
0100
0000
0000
0000
0000
0000
0010
0000
0000
0000
0100
0000
0000
0000
0001
0000
0000
0000
1000
0000
0000
0000
0100
0000
0010
0000
0000
0001
0000
0000
,
1000
0000
0000
0000
0000
0000
0000
0000
0100
0000
0000
0000
0000
0000
0000
0000
0010
0000
0001
0000
0000
0000
0000
0000
0010
0000
0000
0000
0100
0000
0000
0000
1000
0001
0000
0000
0100
0000
0000
0010
0000
0000
0001
0000
0000
1000
0000
0000
0100
0000
0000
0010
0000
0000
0001
0000
0000
1000
0000
0000
0100
0000
0000
0010
0000
0000
1010
0000
0000
0100
0000
0000
0010
0000
0000
0001
0000
0000
0010
0000
0000
0100
0000
0000
1000
0000
0000
0001
0000
0000
0010
0000
0000
0100
0000
0000
0000
0000
0000
0001
0000
0000
1000
0000
0000
0100
0000
0000
0020
0000
0000
1030
0000
0000
0001
0000
0000
0100
0000
0000
0010
0000
0000
0001
0000
0000
1000
0000
0000
0100
0000
0000
0010
0000
0000
0001
0000
0000
2000
0000
0000
3100
0000
0000
0010
0000
0000
0001
0000
0000
2000
0000
0000
3100
0000
0000
0010
0000
0000
0001
0000
0000
1000
0000
0000
0100
0000
0000
0010
0000
0000
1000
0000
0000
0001
0000
0000
0100
0000
0000
0010
0000
0000
0010
0000
0000
1000
0000
0000
0001
0000
0000
,
0100
0000
0000
0010
0000
0000
0001
0000
0000
1000
0000
0000
0100
0000
0000
0010
0000
0000
0001
0000
0000
1000
0000
0000
0100
0000
0000
1000
0000
0000
0100
0000
0000
0001
0000
0000
0010
0000
0000
0001
0000
0000
0010
0000
0000
0100
0000
0000
0010
0000
0000
0100
0000
0000
0010
0000
0000
1000
0000
0000
0100
0000
0000
0000
0010
0000
0000
0000
0001
0000
0000
0000
1000
0000
0000
0000
0100
0000
0000
0000
0010
0000
0000
0000
0000
0000
0000
0000
1000
0000
0000
0000
0100
0000
0000
0000
0001
0000
0000
0000
1000
0000
0000
0000
0100
0000
0000
0000
0010
0000
0000
0000
0001
0000
0000
0000
1000
0000
0000
0000
0100
0000
0000
0000
0010
0000
0000
0000
0001
0000
0000
0000
1000
0000
0000
0000
0000
0000
0100
0000
0000
0000
0000
0000
0010
0000
0000
0000
0000
0000
1000
0000
0000
0000
0000
0000
0001
0000
0000
0000
0000
0000
0100
0000
0000
0000
0000
0000
1000
0000
0000
0000
0000
0000
0001
0000
0000
0000
0000
0000
0010
0000
0000
0000
0000
0000
0200
0000
0000
0000
0000
0000
,
2300
3001
2000
3001
0100
0002
1003
0001
1000
0001
1000
0001
1000
0100
1000
0100
0010
0001
0010
0001
0010
1000
0001
1000
0001
1000
0001
1000
0001
0100
1000
0100
,
0010
0001
1000
0001
1000
0200
0320
0031
1000
0001
2000
3200
0320
0032
1003
0120
0032
1003
2211
3020
0332
1223
0332
2223
3302
2233
3312
2203
3320
2032
3123
0032
,
2203
0000
0000
0000
0000
0000
3322
0000
0000
0000
0000
0000
2033
0000
0000
0000
0000
0000
3022
0000
0000
0000
0000
0000
2033
0000
0000
0000
0000
0000
0220
0000
0000
0000
0000
0000
3332
0000
0000
0000
0000
0000
2203
0000
0000
0000
0000
0000
3312
0000
0000
0000
2203
0000
0000
0000
3020
0000
0000
0000
0332
0000
0000
2203
0000
0000
3300
0000
0000
0001
0000
0000
1220
0000
0000
2332
0000
0000
0203
0000
0000
3312
0000
0000
2003
0000
0000
3200
0000
0000
0312
0000
0000
2203
0000
0000
3312
0000
0000
2003
0000
0000
3200
0000
0000
0312
0000
0000
2003
0000
0000
3220
0000
0000
0332
0000
0000
2203
0000
0000
3312
0000
0000
2003
0000
0000
3120
0000
0000
0032
0000
0000
0203
0000
0000
0312
0000
0000
2003
0000
0000
3220
0000
0000
0332
0000
0000
2203
0000
0000
3312
0000
0000
2003
0000
0000
3220
0000
0000
0332
0000
0000
2003
0000
0000
3022
0000
0000
0030
0000
0000
1203
0000
0000
0302
0000
0000
0223
0000
0000
0000
0000
0000
2332
0000
0000
0003
0000
0000
3122
0000
0000
,
0030
2203
3020
0332
2003
0220
3302
0030
2203
3020
0332
2203
3312
0003
1100
0002
2203
3312
0000
0203
0300
0200
0300
0002
0123
0030
2200
3312
0003
1220
0332
0203
0320
0032
0123
0032
0203
0302
2003
3122
0030
1223
0332
2203
3320
2032
0203
3312
2003
3100
0002
2203
3320
0032
2203
3322
0030
0223
2332
0203
3312
0003
0220
2332
,
0203
0000
0000
3310
0000
0000
2000
0000
0000
3022
0000
0000
2030
0000
0000
3223
0000
0000
0332
0000
0000
0203
0000
0000
0310
0000
0000
2000
0000
0000
3010
0000
0000
2000
0000
0000
3122
0000
0000
0030
2203
0000
0000
0000
3300
0000
0000
0000
2220
0000
0000
0000
3300
0000
2230
0000
0000
0000
0000
0000
3320
0000
0000
0000
0000
0000
0032
0000
0000
0000
0000
0000
1123
0000
0000
0000
0000
0000
0000
0000
0032
0000
0000
0000
0000
0000
0000
0000
2203
0000
0000
0000
0000
0000
0000
0000
3312
0000
0000
0000
0000
0000
0000
0000
2203
0000
0000
0000
0000
0000
0000
0000
0020
0000
0000
0000
0000
0000
0000
0000
3332
0000
0000
0000
0000
0000
0000
0000
2203
0000
0000
0000
0000
0000
0000
0000
3300
0000
0000
0000
0000
0000
0000
0000
0002
0000
0000
0000
0000
0000
0000
0000
0000
0000
0000
0000
2223
0000
0000
0000
0000
0000
0000
0000
0000
0000
0000
0000
3332
0000
0000
0000
0000
0000
0000
0000
0000
0000
0000
0000
1223
0000
0000
0000
0000
0000
0000
0000
0000
0000
0000
0000
,
0332
0203
2311
3100
0000
0000
0000
0000
2222
0000
0000
0000
0000
0000
0000
0000
,
0000
0000
0000
0000
0000
0000
0000
0000
0000
0000
0000
0000
0000
0000
0000
0000
3333
MMMM
MM0M
00M0
MMMM
MMMM
MMMM
MMMM
MMMM
MMMM
MMMM
MMMM
MMMM
MMMM
MMMM
MMMM
MMMM
MMMM
MMMM
MMMM
MMMM
MMMM
0MMM
MMMM
MMMM
MMMM
MMMM
MMMM
MMMM
0MMM
MMMM
MMMM
0MMM
MMMM
MMMM
MMMM
MMMM
MM0M
MMMM
MMMM
MMMM
MMMM
MMMM
MMMM
MMMM
MMMM
0MMM
0000
;
